ผู้เขียน หัวข้อ: Ghost หนังปี 1990 มีไหมครับ Full HD  (อ่าน 211 ครั้ง)

AMIT

  • Newbie
  • *
  • กระทู้: 4
Ghost หนังปี 1990 มีไหมครับ Full HD
« เมื่อ: พฤษภาคม 09, 2018, 09:47:14 PM »
Ghost หนังปี 1990 มีไหมครับ Full HD

l3lack

  • Administrator
  • Hero Member
  • *****
  • กระทู้: 1021
Re: Ghost หนังปี 1990 มีไหมครับ Full HD
« ตอบกลับ #1 เมื่อ: พฤษภาคม 10, 2018, 03:41:31 PM »
Ghost หนังปี 1990 มีไหมครับ Full HD

หาได้แค่นี้ค่ะ http://cornfile.com/0hqsj5a9tqu0

Format                      : Matroska
Format version              : Version 4 / Version 2
File size                   : 3.72 GiB
Duration                    : 2 h 6 min
Overall bit rate            : 4 206 kb/s
Movie name                  : Ghost.1990.1080p.BluRay.DTS.x264.THMASTER-sakwor
Encoded date                : UTC 2013-09-23 06:50:40
Writing application         : mkvmerge v6.0.0 ('Coming Up For Air') built on Jan 20 2013 09:52:00
Writing library             : libebml v1.3.0 + libmatroska v1.4.0

Video
ID                          : 1
Format                      : AVC
Format/Info                 : Advanced Video Codec
Format profile              : [email protected]
Format settings, CABAC      : Yes
Format settings, ReFrames   : 4 frames
Codec ID                    : V_MPEG4/ISO/AVC
Duration                    : 2 h 6 min
Bit rate                    : 3 000 kb/s
Width                       : 1 920 pixels
Height                      : 1 080 pixels
Display aspect ratio        : 16:9
Frame rate mode             : Constant
Frame rate                  : 23.976 (24000/1001) FPS
Color space                 : YUV
Chroma subsampling          : 4:2:0
Bit depth                   : 8 bits
Scan type                   : Progressive
Bits/(Pixel*Frame)          : 0.060
Stream size                 : 2.64 GiB (71%)
Title                       : ENCODER BY SAKWOR
Writing library             : x264 core 116 r2019M 9cc407d
Encoding settings           : cabac=1 / ref=5 / deblock=1:-1:-1 / analyse=0x3:0x133 / me=umh / subme=7 / psy=1 / psy_rd=1.00:0.20 / mixed_ref=1 / me_range=16 / chroma_me=1 / trellis=1 / 8x8dct=1 / cqm=0 / deadzone=21,11 / fast_pskip=1 / chroma_qp_offset=-3 / threads=8 / sliced_threads=0 / nr=0 / decimate=1 / interlaced=0 / bluray_compat=0 / constrained_intra=0 / bframes=3 / b_pyramid=1 / b_adapt=2 / b_bias=0 / direct=3 / weightb=1 / open_gop=0 / weightp=2 / keyint=230 / keyint_min=23 / scenecut=40 / intra_refresh=0 / rc_lookahead=40 / rc=2pass / mbtree=1 / bitrate=3000 / ratetol=1.0 / qcomp=0.60 / qpmin=10 / qpmax=51 / qpstep=4 / cplxblur=20.0 / qblur=0.5 / ip_ratio=1.40 / aq=1:1.00
Language                    : English
Default                     : Yes
Forced                      : No

Audio #1
ID                          : 2
Format                      : AC-3
Format/Info                 : Audio Coding 3
Mode extension              : CM (complete main)
Format settings, Endianness : Big
Codec ID                    : A_AC3
Duration                    : 2 h 6 min
Bit rate mode               : Constant
Bit rate                    : 384 kb/s
Channel(s)                  : 6 channels
Channel positions           : Front: L C R, Side: L R, LFE
Sampling rate               : 48.0 kHz
Frame rate                  : 31.250 FPS (1536 spf)
Bit depth                   : 16 bits
Compression mode            : Lossy
Stream size                 : 348 MiB (9%)
Title                       : TH DD 5.1 @384
Language                    : Thai
Default                     : Yes
Forced                      : Yes

Audio #2
ID                          : 3
Format                      : DTS
Format/Info                 : Digital Theater Systems
Mode                        : 16
Format settings, Endianness : Big
Codec ID                    : A_DTS
Duration                    : 2 h 6 min
Bit rate mode               : Constant
Bit rate                    : 755 kb/s
Channel(s)                  : 6 channels
Channel positions           : Front: L C R, Side: L R, LFE
Sampling rate               : 48.0 kHz
Frame rate                  : 93.750 FPS (512 spf)
Bit depth                   : 24 bits
Compression mode            : Lossy
Stream size                 : 684 MiB (18%)
Title                       : EN DTS 5.1 @768
Language                    : English
Default                     : No
Forced                      : No

Text #1
ID                          : 4
Format                      : VobSub
Codec ID                    : S_VOBSUB
Codec ID/Info               : Picture based subtitle format used on DVDs
Title                       : TH 480P
Language                    : Thai
Default                     : No
Forced                      : No

Text #2
ID                          : 5
Format                      : VobSub
Codec ID                    : S_VOBSUB
Codec ID/Info               : Picture based subtitle format used on DVDs
Title                       : TH 1080P
Language                    : Thai
Default                     : Yes
Forced                      : Yes

Text #3
ID                          : 6
Format                      : UTF-8
Codec ID                    : S_TEXT/UTF8
Codec ID/Info               : UTF-8 Plain Text
Title                       : TH OCR BDMASTER
Language                    : Thai
Default                     : No
Forced                      : No

Text #4
ID                          : 7
Format                      : PGS
Codec ID                    : S_HDMV/PGS
Codec ID/Info               : Picture based subtitle format used on BDs/HD-DVDs
Title                       : EN PGS BDMASTER
Language                    : English
Default                     : No
Forced                      : No

Text #5
ID                          : 8
Format                      : PGS
Codec ID                    : S_HDMV/PGS
Codec ID/Info               : Picture based subtitle format used on BDs/HD-DVDs
Title                       : TH PGS BDMASTER
Language                    : Thai
Default                     : No
Forced                      : No


ClubHiDef.com

Re: Ghost หนังปี 1990 มีไหมครับ Full HD
« ตอบกลับ #1 เมื่อ: พฤษภาคม 10, 2018, 03:41:31 PM »

 

Sitemap 1 2 3 4 5 6 7 8 9 10 11 12 13 14 15 16 17 18 19 20 21 22 23 24 25 26 27 28 29 30 31 32 33 34 35