ผู้เขียน หัวข้อ: ELYSIUM 4K(2013) เอลิเซียม ปฏิบัติการยึดดาวอนาคต [เสียงไทย + อังกฤษ DTS-HD MA 7.1] [บรรยายไทย]]  (อ่าน 517 ครั้ง)

l3lack

  • Administrator
  • Hero Member
  • *****
  • กระทู้: 1303



เป็นเรื่องเกี่ยวกับยุคอนาคตปี 2159 เมื่อคนเราแบ่งออกเป็น 2 ชนชั้น อันได้แก่พวกมหาเศรษฐีรวยล้นฟ้า และพวกที่มีฐานะด้อยกว่า ซึ่งพวกชนชั้นสูงจะได้อยู่บนดาว Elysium ในขณะที่ชนชั้นล่างจะต้องอยู่บนดาวโลกที่เสื่อมโทรมล งมากแล้ว ทำให้คนชนชั้นล่างพากันเรียกร้องขอความเป็นธรรมเพื่อ จะได้ไปอยู่บนดาวที่ เจริญแล้วบ้าง แต่ก็ถูกโรดส์ เจ้าหน้าที่รัฐบาลขัดขวาง ในขณะเดียวกัน ชายชื่อแมกซ์ผู้ทนอยู่ในสถานการณ์สิ้นไร้ความหวังแบบ นี้ไม่ไหวอีกต่อไป ก็ได้ตัดสินใจลุกขึ้นเดินหน้าเรียกร้องความยุติธรรม เพื่อชีวิตที่ดีขึ้นของตัวเองและผู้คนอีกมากมาย


General
Complete name : ELYSIUM 4K- เอลิเซียม ปฏิบัติการยึดดาวอนาคต (2013) WEB-DLRip 2160P.mkv
Format : Matroska
Format version : Version 4 / Version 2
File size : 41.4 GiB
Duration : 1h 49mn
Overall bit rate : 54.1 Mbps
Encoded date : UTC 2017-11-15 12:59:00
Writing application : mkvmerge v6.9.1 ( Blue Panther ) 32bit built on Apr 18 2014 18:15:44
Writing library : libebml v1.3.0 + libmatroska v1.4.1

Video
ID : 1
Format : AVC
Format/Info : Advanced Video Codec
Format profile : [email protected]
Format settings, CABAC : Yes
Format settings, ReFrames : 7 frames
Codec ID : V_MPEG4/ISO/AVC
Duration : 1h 49mn
Nominal bit rate : 50.0 Mbps
Width : 3 840 pixels
Height : 1 606 pixels
Display aspect ratio : 2.40:1
Frame rate mode : Constant
Frame rate : 23.976 (24000/1001) fps
Color space : YUV
Chroma subsampling : 4:2:0
Bit depth : 8 bits
Scan type : Progressive
Bits/(Pixel*Frame) : 0.338
Writing library : x264 core 148 r2638 7599210
Encoding settings : cabac=1 / ref=7 / deblock=1:-1:-1 / analyse=0x3:0x133 / me=umh / subme=10 / psy=1 / psy_rd=1.00:0.15 / mixed_ref=1 / me_range=24 / chroma_me=1 / trellis=2 / 8x8dct=1 / cqm=0 / deadzone=21,11 / fast_pskip=1 / chroma_qp_offset=-3 / threads=12 / lookahead_threads=2 / sliced_threads=0 / nr=0 / decimate=1 / interlaced=0 / bluray_compat=0 / constrained_intra=0 / bframes=8 / b_pyramid=2 / b_adapt=2 / b_bias=0 / direct=3 / weightb=1 / open_gop=0 / weightp=2 / keyint=250 / keyint_min=23 / scenecut=40 / intra_refresh=0 / rc_lookahead=60 / rc=2pass / mbtree=1 / bitrate=50000 / ratetol=1.0 / qcomp=0.60 / qpmin=0 / qpmax=69 / qpstep=4 / cplxblur=20.0 / qblur=0.5 / vbv_maxrate=300000 / vbv_bufsize=300000 / nal_hrd=none / filler=0 / ip_ratio=1.40 / aq=2:1.00
Language : English
Default : Yes
Forced : Yes
Color range : Limited
Matrix coefficients : BT.709

Audio #1
ID : 2
Format : DTS
Format/Info : Digital Theater Systems
Format profile : MA / Core
Mode : 16
Format settings, Endianness : Big
Codec ID : A_DTS
Duration : 1h 49mn
Bit rate mode : Variable / Constant
Bit rate : Unknown / 1 509 Kbps
Channel(s) : 8 channels / 6 channels
Channel positions : Front: L C R, Side: L R, Back: L R, LFE / Front: L C R, Side: L R, LFE
Sampling rate : 48.0 KHz
Frame rate : 93.750 fps (512 spf)
Bit depth : 16 bits
Compression mode : Lossless / Lossy
Delay relative to video : 5ms
Language : English
Default : Yes
Forced : Yes

Audio #2
ID : 3
Format : AC-3
Format/Info : Audio Coding 3
Mode extension : CM (complete main)
Format settings, Endianness : Big
Codec ID : A_AC3
Duration : 1h 49mn
Bit rate mode : Constant
Bit rate : 640 Kbps
Channel(s) : 6 channels
Channel positions : Front: L C R, Side: L R, LFE
Sampling rate : 48.0 KHz
Frame rate : 31.250 fps (1536 spf)
Compression mode : Lossy
Stream size : 502 MiB (1%)
Language : English
Default : No
Forced : Yes

Audio #3
ID : 4
Format : AC-3
Format/Info : Audio Coding 3
Mode extension : CM (complete main)
Format settings, Endianness : Big
Codec ID : A_AC3
Duration : 1h 49mn
Bit rate mode : Constant
Bit rate : 640 Kbps
Channel(s) : 6 channels
Channel positions : Front: L C R, Side: L R, LFE
Sampling rate : 48.0 KHz
Frame rate : 31.250 fps (1536 spf)
Compression mode : Lossy
Delay relative to video : 16ms
Stream size : 502 MiB (1%)
Title : THAI AC3 FROM BLU-RAY MASTER
Language : Thai
Default : No
Forced : Yes

Text #1
ID : 5
Format : VobSub
Muxing mode : zlib
Codec ID : S_VOBSUB
Codec ID/Info : Picture based subtitle format used on DVDs
Language : Thai
Default : No
Forced : Yes

Text #2
ID : 6
Format : PGS
Muxing mode : zlib
Codec ID : S_HDMV/PGS
Codec ID/Info : Picture based subtitle format used on BDs/HD-DVDs
Title : SUBTHAI PGS FROM BLU-RAY MASTER
Language : Thai
Default : Yes
Forced : Yes

Text #3
ID : 7
Format : VobSub
Muxing mode : zlib
Codec ID : S_VOBSUB
Codec ID/Info : Picture based subtitle format used on DVDs
Language : English
Default : No
Forced : Yes

Text #4
ID : 8
Format : PGS
Muxing mode : zlib
Codec ID : S_HDMV/PGS
Codec ID/Info : Picture based subtitle format used on BDs/HD-DVDs
Title : Full
Language : English
Default : No
Forced : Yes

Text #5
ID : 9
Format : PGS
Muxing mode : zlib
Codec ID : S_HDMV/PGS
Codec ID/Info : Picture based subtitle format used on BDs/HD-DVDs
Title : Full i
Language : English
Default : No
Forced : Yes

Text #6
ID : 10
Format : PGS
Muxing mode : zlib
Codec ID : S_HDMV/PGS
Codec ID/Info : Picture based subtitle format used on BDs/HD-DVDs
Title : Full BD i
Language : English
Default : No
Forced : Yes





http://cornfile.com/10urb1rqm52f




 

Sitemap 1 2 3 4 5 6 7 8 9 10 11 12 13 14 15 16 17 18 19 20 21 22 23 24 25 26 27 28 29 30 31 32 33 34 35